<?xml version="1.0" standalone="no"?>
<!DOCTYPE svg PUBLIC "-//W3C//DTD SVG 1.1//EN" "http://www.w3.org/Graphics/SVG/1.1/DTD/svg11.dtd" >
<svg xmlns="http://www.w3.org/2000/svg" xmlns:xlink="http://www.w3.org/1999/xlink" version="1.1">
<metadata></metadata>
<defs>
<font id="proxima_nova_scosfthin" horiz-adv-x="425" >
<font-face units-per-em="2048" ascent="1618" descent="-430" />
<missing-glyph horiz-adv-x="532" />
<glyph unicode="&#xfb01;" horiz-adv-x="1392" d="M176 0v1126h725v-59h-659v-457h649v-59h-649v-551h-66zM1151 0v1126h66v-1126h-66z" />
<glyph unicode="&#xfb02;" horiz-adv-x="1894" d="M176 0v1126h725v-59h-659v-457h649v-59h-649v-551h-66zM1151 0v1126h66v-1067h589v-59h-655z" />
<glyph horiz-adv-x="0" />
<glyph horiz-adv-x="682" />
<glyph horiz-adv-x="0" />
<glyph horiz-adv-x="0" />
<glyph unicode="&#xd;" horiz-adv-x="0" />
<glyph unicode=" "  horiz-adv-x="532" />
<glyph unicode="&#x09;" horiz-adv-x="532" />
<glyph unicode="&#xa0;" horiz-adv-x="532" />
<glyph unicode="!" horiz-adv-x="342" d="M102 49q0 26 20 46t48 20t48 -20t20 -46q0 -28 -20 -47.5t-48 -19.5t-48 19.5t-20 47.5zM127 1126h86l-23 -856h-40z" />
<glyph unicode="&#x22;" horiz-adv-x="593" d="M127 1333q0 22 15 37.5t38 15.5t38 -15.5t15 -37.5l-30 -426h-45q-31 403 -31 426zM360 1333q0 22 15.5 37.5t38.5 15.5t38 -15.5t15 -37.5l-31 -426h-45q-31 403 -31 426z" />
<glyph unicode="#" horiz-adv-x="980" d="M53 340l19 59h190l113 336h-193l17 58h194l113 333h67l-114 -333h209l114 333h68l-115 -333h193l-17 -58h-194l-113 -336h199l-19 -59h-200l-113 -340h-68l115 340h-211l-112 -340h-68l115 340h-189zM328 399h209l110 336h-205z" />
<glyph unicode="$" horiz-adv-x="1011" d="M92 158l53 43q57 -67 141.5 -113t190.5 -53v532q-47 12 -75.5 20t-70 22.5t-67 28.5t-54.5 36t-45 47t-27 59.5t-11 75.5q0 129 101.5 209t248.5 86v135h62v-137q214 -11 346 -160l-47 -43q-106 131 -299 144v-469q42 -12 69.5 -20t66.5 -22t64.5 -27.5t56 -32.5 t49.5 -41t36.5 -50t25.5 -62.5t8 -74.5q0 -131 -93.5 -220t-282.5 -96v-127h-62v129q-124 6 -223.5 54.5t-161.5 126.5zM197 856q0 -39 15.5 -70.5t39 -52.5t63.5 -40t74.5 -30.5t87.5 -25.5v453q-120 -6 -200 -72t-80 -162zM539 35q156 7 231.5 79.5t75.5 176.5 q0 48 -17.5 86.5t-43.5 64t-70 47.5t-81.5 34.5t-94.5 27.5v-516z" />
<glyph unicode="%" horiz-adv-x="1173" d="M55 872q0 119 73.5 199t186.5 80q115 0 189 -80t74 -199t-74 -197.5t-189 -78.5q-113 0 -186.5 78.5t-73.5 197.5zM117 872q0 -94 55.5 -159.5t142.5 -65.5q89 0 144 65t55 160t-55.5 161.5t-143.5 66.5q-87 0 -142.5 -66.5t-55.5 -161.5zM158 0l782 1126h78l-787 -1126 h-73zM598 252q0 120 73 199t187 79t187 -79t73 -199q0 -119 -73.5 -198t-186.5 -79t-186.5 79t-73.5 198zM659 252q0 -94 55.5 -159.5t143.5 -65.5t143.5 65.5t55.5 159.5q0 96 -55 161.5t-144 65.5t-144 -65.5t-55 -161.5z" />
<glyph unicode="&#x26;" horiz-adv-x="1120" d="M68 287q0 52 15 98t38 79.5t59.5 65.5t70.5 54t81 47q-101 141 -101 260q0 112 79 186t190 74q103 0 170 -54t67 -159q0 -48 -18 -90t-42.5 -71t-70 -61t-79.5 -50.5t-91 -47.5l-12 -6q56 -72 168 -184q70 -76 176 -178q82 118 137 289l64 -23q-68 -185 -154 -309 q100 -90 238 -207h-101q-104 89 -176 156q-150 -181 -356 -181q-155 0 -253.5 85.5t-98.5 226.5zM133 287q0 -110 80.5 -182t206.5 -72q172 0 309 168q-101 95 -182 180q-125 132 -178 201q-54 -29 -91.5 -55t-73 -62t-53.5 -80.5t-18 -97.5zM295 891q0 -97 94 -232 q135 69 180 102q103 76 103 177q0 75 -47 115.5t-125 40.5q-88 0 -146.5 -58.5t-58.5 -144.5z" />
<glyph unicode="'" horiz-adv-x="360" d="M127 1333q0 22 15 37.5t38 15.5t38 -15.5t15 -37.5l-30 -426h-45q-31 403 -31 426z" />
<glyph unicode="(" horiz-adv-x="421" d="M96 498q0 482 258 905l33 -23q-110 -232 -164.5 -429t-54.5 -453q0 -255 54.5 -453.5t164.5 -427.5l-33 -25q-258 423 -258 906z" />
<glyph unicode=")" horiz-adv-x="421" d="M35 -383q110 229 164.5 427.5t54.5 453.5q0 256 -54.5 453t-164.5 429l33 23q258 -423 258 -905q0 -483 -258 -906z" />
<glyph unicode="*" horiz-adv-x="675" d="M84 1001l217 111l-217 111l31 53l204 -133l-12 243h62l-13 -243l205 133l31 -53l-217 -111l217 -111l-31 -53l-205 133l13 -243h-62l12 243l-204 -133z" />
<glyph unicode="+" horiz-adv-x="1011" d="M59 659v62h414v442h66v-442h413v-62h-413v-454h-66v454h-414z" />
<glyph unicode="," d="M119 -205q49 36 78.5 89t29.5 100q-12 -2 -16 -2q-29 0 -47.5 19.5t-18.5 47.5q0 27 18.5 46.5t47.5 19.5q34 0 57 -29t23 -80q0 -73 -37.5 -142t-89.5 -106z" />
<glyph unicode="-" horiz-adv-x="614" d="M61 465v61h492v-61h-492z" />
<glyph unicode="." d="M145 49q0 26 20 46t48 20t48 -20t20 -46q0 -28 -20 -47.5t-48 -19.5t-48 19.5t-20 47.5z" />
<glyph unicode="/" horiz-adv-x="548" d="M0 -41l485 1448h64l-486 -1448h-63z" />
<glyph unicode="0" horiz-adv-x="1239" d="M133 563q0 87 17 170t55.5 159.5t94 133.5t138.5 91t183 34q124 0 220 -51.5t152 -137t84.5 -187.5t28.5 -212q0 -87 -17 -169.5t-55 -159t-93 -133.5t-137.5 -91.5t-182.5 -34.5t-183 34.5t-138.5 91.5t-94 133.5t-55.5 159t-17 169.5zM205 563q0 -79 14 -152.5 t45.5 -142t78.5 -119.5t118.5 -81.5t159.5 -30.5q87 0 158 30.5t117.5 81.5t78.5 119.5t45.5 142t13.5 152.5q0 100 -22.5 190t-69.5 167.5t-129.5 123.5t-191.5 46q-88 0 -159.5 -30.5t-118.5 -81.5t-78.5 -120t-45.5 -142.5t-14 -152.5z" />
<glyph unicode="1" horiz-adv-x="567" d="M61 844l265 282h61v-1126h-65v1032l-216 -235z" />
<glyph unicode="2" horiz-adv-x="1175" d="M121 944q63 94 185.5 150.5t266.5 56.5q107 0 198 -43.5t148.5 -128t57.5 -193.5q0 -200 -193.5 -391.5t-511.5 -333.5h684v-61h-817v59q378 177 575 360t197 367q0 131 -99 217.5t-241 86.5q-129 0 -236.5 -51t-160.5 -134z" />
<glyph unicode="3" horiz-adv-x="1087" d="M74 -35l57 33q56 -91 154 -146t231 -55q170 0 270.5 87.5t100.5 238.5q0 81 -32 142.5t-87.5 98t-125 54.5t-150.5 18q-95 0 -115 -2v66q20 -2 115 -2q100 0 182 29t137 97t55 167q0 136 -102 215t-248 79q-119 0 -206.5 -45t-166.5 -139l-51 41q72 92 181 148.5 t243 56.5q109 0 202 -39.5t153.5 -122.5t60.5 -194q0 -63 -20.5 -116.5t-51.5 -88t-71.5 -61t-76.5 -39.5t-71 -19q36 -3 76 -17t82.5 -42t76 -66t55 -95t21.5 -124q0 -171 -116 -279t-320 -108q-153 0 -268.5 65t-173.5 164z" />
<glyph unicode="4" horiz-adv-x="1073" d="M78 160v67l624 899h86v-905h207v-61h-207v-400h-65v400h-645zM150 221h573v832z" />
<glyph unicode="5" horiz-adv-x="1175" d="M166 -35l53 39q69 -104 161.5 -155.5t227.5 -51.5q157 0 263 105.5t106 263.5q0 170 -104.5 271.5t-264.5 101.5q-193 0 -344 -142l-55 33v696h745v-61h-680v-596q57 56 144.5 93.5t189.5 37.5q86 0 163.5 -28t138.5 -81t96.5 -137t35.5 -188q0 -129 -61.5 -228.5 t-159.5 -150.5t-213 -51q-161 0 -266.5 59t-175.5 170z" />
<glyph unicode="6" horiz-adv-x="1181" d="M133 682q0 104 15 201t51.5 190t91 161.5t139.5 110t191 41.5q128 0 212 -47.5t146 -136.5l-49 -43q-56 80 -127 123t-182 43q-93 0 -167 -39.5t-121 -103.5t-78 -152t-43.5 -178.5t-12.5 -189.5q0 -49 2 -74q22 38 61 78t92 78t122.5 62.5t139.5 24.5q193 0 313 -110 t120 -320q0 -80 -29 -155t-83 -136t-139.5 -98t-189.5 -37q-103 0 -185 39.5t-135.5 105.5t-89 158t-50.5 192t-15 212zM209 504q6 -65 21.5 -127t47.5 -125t75.5 -109.5t109 -76t145.5 -29.5q92 0 166 33.5t118 88t67.5 117t23.5 125.5q0 180 -101 274.5t-268 94.5 q-121 0 -231.5 -74t-173.5 -192z" />
<glyph unicode="7" horiz-adv-x="1001" d="M74 1065v61h854v-45l-604 -1321h-74l600 1305h-776z" />
<glyph unicode="8" horiz-adv-x="1148" d="M135 338q0 72 30 134.5t81.5 107.5t112.5 76t130 49q-65 15 -121.5 42.5t-105 67.5t-76.5 97t-28 124q0 86 36 154.5t96 110t133 63.5t152 22q78 0 150.5 -22t133.5 -63.5t97.5 -110t36.5 -154.5q0 -67 -28 -124t-76.5 -97t-105 -67.5t-121.5 -42.5q69 -18 130 -49 t111.5 -76t80.5 -107.5t30 -134.5q0 -158 -124 -260.5t-315 -102.5q-194 0 -317 101.5t-123 261.5zM201 338q0 -91 53 -160.5t137.5 -105t183.5 -35.5q150 0 261.5 83t111.5 218q0 56 -21.5 106t-57 84.5t-77 62.5t-85 45.5t-76.5 27t-56 12.5q-30 -4 -71.5 -16t-96 -39.5 t-99.5 -64t-76 -94t-31 -124.5zM223 1036q0 -52 19.5 -96.5t54 -75.5t71 -54.5t80.5 -38.5t71.5 -23t55.5 -13q35 7 70 16.5t89.5 33.5t94.5 55t69.5 82.5t29.5 113.5q0 132 -102.5 210.5t-250.5 78.5q-150 0 -251 -78.5t-101 -210.5z" />
<glyph unicode="9" horiz-adv-x="1181" d="M133 723q0 80 29 155t82.5 136t139 98t189.5 37q103 0 185 -39.5t135.5 -105.5t89.5 -158t51 -192t15 -212q0 -104 -15 -201t-51.5 -190t-91 -161.5t-139.5 -110t-191 -41.5q-128 0 -212 47.5t-146 136.5l49 43q56 -80 127 -123t182 -43q93 0 167 39.5t121 103.5 t78 152.5t43.5 179t12.5 189.5q0 49 -2 74q-31 -52 -87.5 -105t-146.5 -96t-182 -43q-193 0 -312.5 110t-119.5 320zM199 723q0 -180 100.5 -274.5t267.5 -94.5q121 0 232 74.5t174 192.5q-6 65 -22 127t-47.5 124.5t-75 109t-109.5 76t-146 29.5q-74 0 -137 -22.5 t-105.5 -59t-73 -84.5t-44.5 -98t-14 -100z" />
<glyph unicode=":" d="M145 49q0 26 20 46t48 20t48 -20t20 -46q0 -28 -20 -47.5t-48 -19.5t-48 19.5t-20 47.5zM145 936q0 28 20 48t48 20t48 -20t20 -48q0 -26 -20 -46t-48 -20t-48 20t-20 46z" />
<glyph unicode=";" d="M119 -205q49 36 78.5 89t29.5 100q-12 -2 -16 -2q-29 0 -47.5 19.5t-18.5 47.5q0 27 18.5 46.5t47.5 19.5q34 0 57 -29t23 -80q0 -73 -37.5 -142t-89.5 -106zM145 936q0 28 20 48t48 20t48 -20t20 -48q0 -26 -20 -46t-48 -20t-48 20t-20 46z" />
<glyph unicode="&#x3c;" horiz-adv-x="1011" d="M59 664v43l893 481v-74l-809 -430l809 -426v-74z" />
<glyph unicode="=" horiz-adv-x="1011" d="M59 451v61h893v-61h-893zM59 856v62h893v-62h-893z" />
<glyph unicode="&#x3e;" horiz-adv-x="1011" d="M59 184v74l809 426l-809 430v74l893 -481v-43z" />
<glyph unicode="?" horiz-adv-x="813" d="M29 961q135 188 385 188q153 0 244.5 -77t91.5 -187q0 -54 -21 -99.5t-55 -78t-75.5 -61t-82.5 -54t-75 -50.5t-55 -57.5t-21 -68.5q0 -51 67 -94l-43 -43q-86 61 -86 137q0 53 28.5 98t71 75t92 63t92 62.5t71 74t28.5 96.5q0 91 -74 149t-198 58q-118 0 -197.5 -44 t-142.5 -126zM315 49q0 26 20 46t48 20t48 -20t20 -46q0 -28 -20 -47.5t-48 -19.5t-48 19.5t-20 47.5z" />
<glyph unicode="@" horiz-adv-x="1603" d="M72 500q0 163 67.5 313.5t179 258t260.5 171.5t306 64q141 0 262 -52t204.5 -142t131 -213.5t47.5 -262.5q0 -216 -89 -339.5t-220 -123.5q-79 0 -128 53t-49 127v13q-59 -82 -152.5 -137.5t-197.5 -55.5q-139 0 -225 88t-86 236q0 108 43.5 207t113.5 168t160 110 t181 41q100 0 169 -50.5t99 -127.5l29 141h61l-127 -602q-2 -12 -2 -37q0 -54 32.5 -86.5t78.5 -32.5q27 0 57 11t65 40.5t62.5 73.5t46 118.5t18.5 166.5q0 171 -74 309t-209.5 217.5t-307.5 79.5q-148 0 -286 -62.5t-238.5 -164.5t-161 -238t-60.5 -278q0 -164 76 -298 t213 -211t307 -77q199 0 385 117l33 -47q-200 -129 -426 -129q-183 0 -332 85t-233 232t-84 326zM451 498q0 -119 64.5 -194t178.5 -75q115 0 210 67t159 161l70 321q-23 73 -87.5 132t-164.5 59q-115 0 -215.5 -68t-157.5 -176.5t-57 -226.5z" />
<glyph unicode="A" horiz-adv-x="1302" d="M43 0l569 1366h78l570 -1366h-76l-152 367h-762l-151 -367h-76zM295 428h713l-357 862z" />
<glyph unicode="B" horiz-adv-x="1228" d="M180 0v1366h514q168 0 270.5 -91.5t102.5 -256.5q0 -122 -72 -207.5t-170 -105.5q109 -17 189 -117t80 -219q0 -173 -105.5 -271t-286.5 -98h-522zM246 61h456q150 0 235 82.5t85 223.5q0 126 -84.5 215.5t-235.5 89.5h-456v-611zM246 733h448q145 0 223 80t78 205 q0 124 -78.5 205.5t-222.5 81.5h-448v-572z" />
<glyph unicode="C" horiz-adv-x="1366" d="M133 682q0 154 53.5 287t145 224.5t217 143.5t266.5 52q288 0 475 -215l-51 -46q-73 92 -185.5 145.5t-238.5 53.5q-127 0 -239.5 -47t-194 -130.5t-129 -204.5t-47.5 -263q0 -140 47.5 -261t129 -205t194 -131.5t239.5 -47.5q126 0 238.5 53.5t185.5 145.5l53 -43 q-194 -218 -477 -218q-141 0 -266.5 52t-217 143.5t-145 224.5t-53.5 287z" />
<glyph unicode="D" horiz-adv-x="1400" d="M180 0v1366h406q155 0 284.5 -55.5t215 -149.5t133 -218t47.5 -261q0 -139 -47.5 -262.5t-133 -217t-215 -148t-284.5 -54.5h-406zM246 61h340q142 0 258 48.5t192 132.5t117 197t41 243q0 103 -25.5 196t-77 171t-124 135t-170 89t-211.5 32h-340v-1244z" />
<glyph unicode="E" horiz-adv-x="1142" d="M180 0v1366h836v-61h-770v-572h755v-61h-755v-611h770v-61h-836z" />
<glyph unicode="F" horiz-adv-x="1091" d="M180 0v1366h836v-61h-770v-572h755v-61h-755v-672h-66z" />
<glyph unicode="G" horiz-adv-x="1449" d="M133 682q0 154 53.5 287t145 224.5t217 143.5t266.5 52q295 0 500 -211l-43 -45q-80 91 -200.5 142.5t-256.5 51.5q-127 0 -239.5 -47t-194 -130.5t-129 -204.5t-47.5 -263q0 -140 47.5 -261.5t129 -205.5t194 -132t239.5 -48q137 0 250 54.5t184 129.5v375h-563v61h629 v-462q-91 -102 -221 -161t-279 -59q-141 0 -266.5 52.5t-217 144t-145 225t-53.5 287.5z" />
<glyph unicode="H" horiz-adv-x="1423" d="M180 0v1366h66v-633h932v633h65v-1366h-65v672h-932v-672h-66z" />
<glyph unicode="I" d="M180 0v1366h66v-1366h-66z" />
<glyph unicode="J" horiz-adv-x="952" d="M33 154l55 49q116 -166 291 -166q150 0 239 94.5t89 247.5v987h65v-987q0 -99 -31.5 -177.5t-86 -127t-125 -74t-150.5 -25.5q-112 0 -196 43.5t-150 135.5z" />
<glyph unicode="K" horiz-adv-x="1169" d="M180 0v1366h66v-788l710 788h88l-593 -653l655 -713h-88l-608 672l-164 -178v-494h-66z" />
<glyph unicode="L" horiz-adv-x="972" d="M147 0v1366h66v-1305h686v-61h-752z" />
<glyph unicode="M" horiz-adv-x="1576" d="M180 0v1366h105l503 -1223l504 1223h105v-1366h-66v1288l-532 -1288h-21l-532 1288v-1288h-66z" />
<glyph unicode="N" horiz-adv-x="1413" d="M180 0v1366h66l921 -1247v1247h66v-1366h-66l-921 1260v-1260h-66z" />
<glyph unicode="O" horiz-adv-x="1564" d="M133 682q0 198 78.5 358t227.5 254.5t343 94.5q193 0 342.5 -94.5t228.5 -255t79 -357.5t-79 -357.5t-228.5 -255t-342.5 -94.5q-194 0 -343 94.5t-227.5 254.5t-78.5 358zM205 682q0 -185 69.5 -331t201.5 -230t306 -84q172 0 304 84t203 230t71 331q0 187 -71 333 t-203 229t-304 83q-174 0 -306 -83t-201.5 -229t-69.5 -333z" />
<glyph unicode="P" horiz-adv-x="1136" d="M180 0v1366h473q184 0 292 -112t108 -275q0 -106 -47 -193t-139.5 -140.5t-213.5 -53.5h-407v-592h-66zM246 653h405q149 0 239.5 91.5t90.5 234.5t-90.5 234.5t-239.5 91.5h-405v-652z" />
<glyph unicode="Q" horiz-adv-x="1564" d="M133 682q0 198 78.5 358t227.5 254.5t343 94.5q193 0 342.5 -94.5t228.5 -255t79 -357.5q0 -157 -51.5 -293t-147.5 -233l156 -156l-46 -47l-159 160q-170 -138 -402 -138q-194 0 -343 94.5t-227.5 254.5t-78.5 358zM205 682q0 -185 69.5 -331t201.5 -230t306 -84 q205 0 355 121l-226 227l47 47l228 -229q84 87 129 209.5t45 269.5q0 187 -71 333t-203 229t-304 83q-174 0 -306 -83t-201.5 -229t-69.5 -333z" />
<glyph unicode="R" horiz-adv-x="1185" d="M180 0v1366h471q173 0 288.5 -103t115.5 -284t-115.5 -285t-288.5 -104l422 -590h-84l-416 590h-327v-590h-66zM246 651h405q149 0 240.5 92.5t91.5 235.5t-91.5 234.5t-240.5 91.5h-405v-654z" />
<glyph unicode="S" horiz-adv-x="1177" d="M109 193l53 47q72 -87 180 -145t244 -58q112 0 193.5 29.5t123 77.5t60 98t18.5 104q0 72 -28.5 127t-76.5 89t-110 60t-131 45.5t-137.5 39t-130.5 46.5t-110 62.5t-76.5 92.5t-28.5 132q0 107 60.5 188t157 121t210.5 40q286 0 442 -193l-51 -47q-137 178 -391 178 q-151 0 -254 -81t-103 -206q0 -79 46 -133.5t119 -85.5t161.5 -56t177 -55t161.5 -71t119 -115.5t46 -177.5q0 -50 -12.5 -98t-46 -98.5t-84.5 -88.5t-134.5 -62t-189.5 -24q-153 0 -276 59.5t-201 158.5z" />
<glyph unicode="T" horiz-adv-x="1144" d="M78 1305v61h989v-61h-463v-1305h-65v1305h-461z" />
<glyph unicode="U" horiz-adv-x="1376" d="M180 518v848h66v-848q0 -229 114 -355t328 -126t328 126t114 355v848h66v-848q0 -257 -131 -400t-377 -143t-377 143.5t-131 399.5z" />
<glyph unicode="V" horiz-adv-x="1302" d="M43 1366h76l532 -1290l533 1290h76l-570 -1366h-78z" />
<glyph unicode="W" horiz-adv-x="1744" d="M51 1366h72l356 -1268l359 1268h69l359 -1268l356 1268h72l-389 -1366h-78l-355 1243l-354 -1243h-78z" />
<glyph unicode="X" horiz-adv-x="1306" d="M51 0l565 700l-534 666h88l483 -612l484 612h88l-535 -664l565 -702h-86l-516 651l-516 -651h-86z" />
<glyph unicode="Y" horiz-adv-x="1249" d="M43 1366h84l498 -709l497 709h84l-549 -774v-592h-65v592z" />
<glyph unicode="Z" horiz-adv-x="1183" d="M109 0v61l874 1244h-874v61h952v-61l-877 -1244h891v-61h-966z" />
<glyph unicode="[" horiz-adv-x="434" d="M70 -389v1778h329v-62h-268v-1655h268v-61h-329z" />
<glyph unicode="\" horiz-adv-x="548" d="M0 1407h63l486 -1448h-64z" />
<glyph unicode="]" horiz-adv-x="434" d="M35 -328h268v1655h-268v62h330v-1778h-330v61z" />
<glyph unicode="^" horiz-adv-x="868" d="M39 682l369 684h53l368 -684h-69l-326 629l-325 -629h-70z" />
<glyph unicode="_" horiz-adv-x="1155" d="M-6 -82h1167v-61h-1167v61z" />
<glyph unicode="`" horiz-adv-x="419" d="M0 1434h92l328 -295h-62z" />
<glyph unicode="a" horiz-adv-x="1128" d="M35 0l493 1126h72l494 -1126h-74l-131 299h-649l-129 -299h-76zM264 358h600l-299 691z" />
<glyph unicode="b" horiz-adv-x="1079" d="M176 0v1126h447q146 0 234.5 -75.5t88.5 -212.5q0 -96 -56.5 -165t-135.5 -91q90 -23 153.5 -103.5t63.5 -173.5q0 -144 -92 -224.5t-250 -80.5h-453zM242 59h387q127 0 198.5 65.5t71.5 178.5q0 102 -71 175t-199 73h-387v-492zM242 610h381q121 0 187.5 64t66.5 164 q0 105 -66.5 167t-187.5 62h-381v-457z" />
<glyph unicode="c" horiz-adv-x="1187" d="M123 565q0 169 78.5 304t213 208.5t298.5 73.5q249 0 415 -184l-47 -41q-62 79 -160 122.5t-208 43.5q-221 0 -370.5 -148.5t-149.5 -378.5q0 -152 69 -273.5t188 -189t263 -67.5q109 0 209.5 45t158.5 121l49 -41q-170 -185 -417 -185q-164 0 -298.5 74t-213 210 t-78.5 306z" />
<glyph unicode="d" horiz-adv-x="1241" d="M176 0v1126h352q134 0 246.5 -46t187 -123.5t115.5 -180t41 -215.5q0 -114 -41 -215.5t-115.5 -178.5t-187 -122t-246.5 -45h-352zM242 59h286q161 0 280 67.5t179 180t60 254.5q0 141 -60 254.5t-179.5 182.5t-279.5 69h-286v-1008z" />
<glyph unicode="e" horiz-adv-x="1024" d="M176 0v1126h725v-59h-659v-457h649v-59h-649v-492h659v-59h-725z" />
<glyph unicode="f" horiz-adv-x="974" d="M176 0v1126h725v-59h-659v-457h649v-59h-649v-551h-66z" />
<glyph unicode="g" horiz-adv-x="1298" d="M123 563q0 170 78.5 305t213 209t298.5 74q255 0 436 -178l-43 -47q-72 77 -175 121.5t-218 44.5q-108 0 -204 -39.5t-165.5 -108t-110 -168t-40.5 -213.5q0 -152 69 -273.5t188 -189t263 -67.5q115 0 210 44t158 105v305h-415v60h481v-389q-79 -84 -192 -133.5 t-242 -49.5q-164 0 -298.5 74t-213 209t-78.5 305z" />
<glyph unicode="h" horiz-adv-x="1273" d="M176 0v1126h66v-516h792v516h64v-1126h-64v551h-792v-551h-66z" />
<glyph unicode="i" horiz-adv-x="417" d="M176 0v1126h66v-1126h-66z" />
<glyph unicode="j" horiz-adv-x="843" d="M25 129l49 43q99 -137 250 -137q128 0 203 75.5t75 198.5v817h66v-817q0 -161 -98 -247.5t-246 -86.5q-187 0 -299 154z" />
<glyph unicode="k" horiz-adv-x="1038" d="M176 0v1126h66v-639l604 639h88l-516 -538l569 -588h-88l-522 549l-135 -143v-406h-66z" />
<glyph unicode="l" horiz-adv-x="919" d="M176 0v1126h66v-1067h589v-59h-655z" />
<glyph unicode="m" horiz-adv-x="1406" d="M176 0v1126h96l430 -993l431 993h98v-1126h-66v1036l-450 -1036h-23l-450 1036v-1036h-66z" />
<glyph unicode="n" horiz-adv-x="1265" d="M176 0v1126h62l786 -1013v1013h66v-1126h-62l-786 1024v-1024h-66z" />
<glyph unicode="o" horiz-adv-x="1370" d="M123 563q0 122 40 229.5t111.5 187t178 125.5t233.5 46q167 0 296 -79t197 -212.5t68 -296.5t-68 -296.5t-197 -212.5t-296 -79q-127 0 -233.5 46t-178 125.5t-111.5 187t-40 229.5zM193 563q0 -230 135 -379t358 -149q220 0 356 149.5t136 378.5q0 231 -136 380 t-356 149q-224 0 -358.5 -148.5t-134.5 -380.5z" />
<glyph unicode="p" horiz-adv-x="1015" d="M176 0v1126h410q86 0 153.5 -26t109.5 -70.5t63.5 -101.5t21.5 -123q0 -139 -90.5 -231.5t-257.5 -92.5h-344v-481h-66zM242 541h344q136 0 207 72.5t71 191.5q0 118 -72 190t-206 72h-344v-526z" />
<glyph unicode="q" horiz-adv-x="1370" d="M123 563q0 122 40 229.5t111.5 187t178 125.5t233.5 46q167 0 296 -79t197 -212.5t68 -296.5q0 -130 -45.5 -244t-128.5 -194l123 -131l-45 -45l-129 133q-142 -107 -336 -107q-127 0 -233.5 46t-178 125.5t-111.5 187t-40 229.5zM193 563q0 -230 135 -379t358 -149 q168 0 293 92l-188 199l47 47l190 -203q150 153 150 393q0 231 -136 380t-356 149q-224 0 -358.5 -148.5t-134.5 -380.5z" />
<glyph unicode="r" horiz-adv-x="1067" d="M176 0v1126h410q164 0 257 -89.5t93 -231.5q0 -143 -91.5 -233t-250.5 -91l362 -481h-86l-354 481h-274v-481h-66zM242 541h344q137 0 208.5 72t71.5 192q0 119 -73.5 190.5t-206.5 71.5h-344v-526z" />
<glyph unicode="s" horiz-adv-x="1011" d="M92 158l53 43q61 -71 154.5 -118.5t208.5 -47.5q173 0 255.5 74t82.5 182q0 66 -31 114.5t-81.5 75t-115 48.5t-132 36t-132 37.5t-115 51.5t-81.5 80t-31 122q0 133 108.5 214t262.5 81q245 0 387 -162l-47 -43q-118 146 -340 146q-127 0 -214 -67.5t-87 -168.5 q0 -50 24.5 -87.5t66 -61.5t95.5 -42.5t113.5 -34t119 -32.5t113.5 -42t95.5 -58.5t66 -86t24.5 -120.5q0 -64 -23.5 -119.5t-70.5 -100.5t-127.5 -70.5t-185.5 -25.5q-133 0 -240.5 50t-175.5 133z" />
<glyph unicode="t" horiz-adv-x="940" d="M63 1067v59h814v-59h-375v-1067h-66v1067h-373z" />
<glyph unicode="u" horiz-adv-x="1234" d="M176 424v702h66v-702q0 -185 96.5 -287t277.5 -102q182 0 279.5 102.5t97.5 286.5v702h66v-702q0 -212 -114.5 -330.5t-328.5 -118.5q-213 0 -326.5 119t-113.5 330z" />
<glyph unicode="v" horiz-adv-x="1128" d="M35 1126h76l454 -1048l457 1048h72l-494 -1126h-72z" />
<glyph unicode="w" horiz-adv-x="1505" d="M41 1126h70l301 -1024l307 1024h67l306 -1026l303 1026h69l-338 -1126h-69l-305 1012l-303 -1012h-72z" />
<glyph unicode="x" horiz-adv-x="1132" d="M41 0l487 578l-462 548h86l413 -499l416 499h84l-461 -546l488 -580h-84l-443 530l-440 -530h-84z" />
<glyph unicode="y" horiz-adv-x="1087" d="M35 1126h84l430 -577l422 577h82l-471 -639v-487h-66v487z" />
<glyph unicode="z" horiz-adv-x="1044" d="M88 0v55l776 1012h-776v59h854v-57l-776 -1010h790v-59h-868z" />
<glyph unicode="{" horiz-adv-x="485" d="M14 469v61q51 0 79 43.5t28 104.5v479q0 100 62 166t141 66h127v-62h-127q-58 0 -100 -49t-42 -121v-479q0 -139 -92 -178q92 -39 92 -178v-480q0 -71 42 -120.5t100 -49.5h127v-61h-127q-79 0 -141 65.5t-62 165.5v480q0 61 -28 104t-79 43z" />
<glyph unicode="|" horiz-adv-x="421" d="M180 -41v1448h62v-1448h-62z" />
<glyph unicode="}" horiz-adv-x="485" d="M35 -328h127q58 0 99.5 49.5t41.5 120.5v480q0 139 92 178q-92 39 -92 178v479q0 72 -41.5 121t-99.5 49h-127v62h127q79 0 141 -66t62 -166v-479q0 -62 27.5 -105t78.5 -43v-61q-51 0 -78.5 -42.5t-27.5 -104.5v-480q0 -100 -62 -165.5t-141 -65.5h-127v61z" />
<glyph unicode="~" horiz-adv-x="1015" d="M57 893q10 102 27.5 180t47 146.5t78 105.5t112.5 37q69 0 115 -43t70 -104t45 -122t56 -104t86 -43q86 0 134 104t69 316l61 -6q-10 -103 -27 -181t-46.5 -147.5t-77.5 -107t-113 -37.5q-50 0 -88.5 23t-61.5 59t-41 80.5t-34 88.5t-34 80t-46.5 59t-66.5 23 q-86 0 -134 -103.5t-69 -313.5z" />
<glyph unicode="&#xa1;" horiz-adv-x="342" d="M104 1077q0 28 20 48t48 20t48 -20t20 -48q0 -26 -20 -45.5t-48 -19.5t-48 19.5t-20 45.5zM129 0l23 856h41l22 -856h-86z" />
<glyph unicode="&#xa2;" horiz-adv-x="1187" d="M123 565q0 247 159 410t398 174v111h61v-109q232 -12 387 -184l-47 -41q-60 73 -149.5 116t-190.5 48v-1055q102 6 193.5 50.5t146.5 115.5l49 -41q-157 -173 -389 -185v-180h-61v182q-117 5 -219.5 50.5t-177 121.5t-117.5 184t-43 232zM193 565q0 -221 139 -369.5 t348 -160.5v1055q-210 -11 -348.5 -157t-138.5 -368z" />
<glyph unicode="&#xa3;" horiz-adv-x="827" d="M27 457v61h198q-35 44 -52.5 67.5t-43 66.5t-36.5 87.5t-11 94.5q0 132 98 223.5t252 91.5q92 0 176.5 -48t122.5 -124l-51 -31q-34 69 -99.5 108.5t-148.5 39.5q-119 0 -204 -72t-85 -188q0 -30 7.5 -61t17 -54t29 -54.5t31.5 -48.5t37.5 -51t35.5 -47h285v-61h-244 q43 -77 43 -140q0 -67 -34 -124.5t-95 -94.5q18 6 47 6q65 0 157.5 -33.5t137.5 -33.5q52 0 102 19.5t72 47.5l41 -51q-34 -32 -93 -55t-126 -23q-75 0 -145.5 36t-145.5 36q-71 0 -201 -65l-28 65q250 105 250 270q0 63 -52 140h-245z" />
<glyph unicode="&#xa5;" horiz-adv-x="1087" d="M35 1126h84l430 -577l422 577h82l-428 -579h415v-62h-458v-182h458v-61h-458v-242h-66v242h-471v61h471v182h-471v62h426z" />
<glyph unicode="&#xa6;" horiz-adv-x="421" d="M180 -41v647h62v-647h-62zM180 760v647h62v-647h-62z" />
<glyph unicode="&#xa7;" horiz-adv-x="929" d="M90 -8l49 45q111 -148 314 -148q129 0 210.5 63t81.5 167q0 48 -21.5 84.5t-58.5 59.5t-84.5 40t-100 31l-105 28t-100 34t-84.5 47t-58.5 69.5t-21.5 97.5q0 107 72.5 173.5t193.5 93.5q-131 36 -198.5 91t-67.5 156q0 110 87.5 186t247.5 76q117 0 203 -42t137 -107 l-45 -41q-50 69 -128 102t-167 33q-120 0 -197 -58.5t-77 -152.5q0 -44 21.5 -77t58.5 -53.5t84.5 -35.5t100.5 -28t105.5 -27t100 -35.5t84.5 -51t58.5 -76.5t21.5 -109q0 -181 -205 -260q102 -38 153.5 -95.5t51.5 -152.5q0 -133 -96.5 -209t-257.5 -76q-71 0 -128 12 t-100 36t-72.5 49t-62.5 61zM172 606q0 -38 19 -68t42 -49t73.5 -38t82.5 -27.5t99 -25.5q29 -7 44 -11q105 46 159 103.5t54 142.5q0 41 -18 74.5t-42 54.5t-67.5 40.5t-73.5 28.5t-81 23q-161 -42 -226 -102.5t-65 -145.5z" />
<glyph unicode="&#xa8;" horiz-adv-x="516" d="M-6 1225q0 23 17 40t40 17t40.5 -17t17.5 -40t-17.5 -40.5t-40.5 -17.5t-40 17.5t-17 40.5zM408 1225q0 23 17 40t40 17t40 -17t17 -40t-17 -40.5t-40 -17.5t-40 17.5t-17 40.5z" />
<glyph unicode="&#xa9;" horiz-adv-x="1593" d="M90 684q0 192 95 355t258 257.5t354 94.5q144 0 275 -56t225 -150.5t150 -225.5t56 -275q0 -143 -56 -274t-150 -226t-225 -151t-275 -56q-191 0 -354 95t-258 258t-95 354zM143 684q0 -106 33.5 -205.5t94 -179.5t141 -141t180 -94t205.5 -33q177 0 327.5 88t238 238.5 t87.5 326.5q0 133 -52 253.5t-139.5 208t-208 139.5t-253.5 52q-132 0 -253 -52t-209 -139.5t-140 -208.5t-52 -253zM371 688q0 186 124 312t302 126q183 0 295 -131l-41 -41q-39 53 -110 85t-144 32q-148 0 -257.5 -108t-109.5 -277q0 -82 30.5 -155t81.5 -123.5 t117.5 -79.5t137.5 -29q74 0 144.5 32.5t109.5 86.5l41 -41q-114 -133 -295 -133q-178 0 -302 128.5t-124 315.5z" />
<glyph unicode="&#xaa;" horiz-adv-x="761" d="M102 866q0 99 69 156t163 57q140 0 231 -94v139q0 71 -55 111.5t-129 40.5q-132 0 -211 -102l-37 38q51 59 110 87t140 28q105 0 171.5 -51.5t66.5 -151.5v-456h-56v77q-91 -94 -231 -94q-93 0 -162.5 59t-69.5 156zM162 866q0 -74 52.5 -122t137.5 -48q64 0 120.5 25 t92.5 70v149q-36 45 -92.5 69.5t-120.5 24.5q-85 0 -137.5 -48t-52.5 -120z" />
<glyph unicode="&#xab;" horiz-adv-x="745" d="M61 498l328 362h80l-328 -362l328 -369h-80zM276 498l328 362h80l-328 -362l328 -369h-80z" />
<glyph unicode="&#xac;" horiz-adv-x="1011" d="M59 856v62h893v-467h-65v405h-828z" />
<glyph unicode="&#xad;" horiz-adv-x="614" d="M61 465v61h492v-61h-492z" />
<glyph unicode="&#xae;" horiz-adv-x="1011" d="M72 952q0 181 127 307.5t307 126.5q119 0 219 -57.5t157.5 -157.5t57.5 -219q0 -180 -126.5 -307t-307.5 -127q-180 0 -307 127t-127 307zM125 952q0 -157 111.5 -269t269.5 -112t269.5 112t111.5 269q0 159 -111 270t-270 111t-270 -111t-111 -270zM342 702v498h203 q64 0 107.5 -41.5t43.5 -109.5q0 -72 -46 -110t-81 -38l133 -199h-75l-129 197h-97v-197h-59zM401 956h144q33 0 61.5 28t28.5 65q0 40 -28 68t-62 28h-144v-189z" />
<glyph unicode="&#xaf;" horiz-adv-x="743" d="M0 1210v56h743v-56h-743z" />
<glyph unicode="&#xb0;" horiz-adv-x="559" d="M53 1159q0 94 66 160.5t160 66.5t160.5 -66.5t66.5 -160.5t-66.5 -159.5t-160.5 -65.5t-160 65.5t-66 159.5zM115 1159q0 -67 48.5 -115.5t115.5 -48.5q68 0 116.5 48.5t48.5 115.5q0 68 -49 117t-116 49t-115.5 -49t-48.5 -117z" />
<glyph unicode="&#xb1;" horiz-adv-x="1011" d="M59 0v61h893v-61h-893zM59 659v62h414v442h66v-442h413v-62h-413v-454h-66v454h-414z" />
<glyph unicode="&#xb2;" horiz-adv-x="778" d="M111 862v49q117 85 196.5 149.5t151.5 136.5t107.5 137.5t35.5 127.5q0 90 -61 134t-144 44q-77 0 -138.5 -29.5t-94.5 -78.5l-41 37q41 58 114.5 91.5t161.5 33.5q37 0 72.5 -7.5t70.5 -25t61.5 -43.5t42.5 -66t16 -88q0 -56 -25.5 -114.5t-64.5 -109.5t-103.5 -110.5 t-123.5 -106t-144 -108.5h465v-53h-555z" />
<glyph unicode="&#xb3;" horiz-adv-x="778" d="M102 983l41 35q37 -53 99.5 -85t142.5 -32q102 0 161.5 48t59.5 132q0 90 -67 134.5t-172 44.5q-56 0 -74 -3v56q12 -2 74 -2q98 0 162.5 41t64.5 125q0 75 -61 119t-150 44q-74 0 -128.5 -25.5t-102.5 -80.5l-39 37q103 123 272 123q112 0 190 -58t78 -157 q0 -47 -18.5 -84.5t-47.5 -59t-58 -33.5t-58 -16q29 -2 61.5 -15.5t63.5 -37t51.5 -63.5t20.5 -89q0 -103 -76 -168t-207 -65q-98 0 -172.5 38t-110.5 97z" />
<glyph unicode="&#xb4;" horiz-adv-x="419" d="M0 1139l328 295h92l-359 -295h-61z" />
<glyph unicode="&#xb5;" horiz-adv-x="1081" d="M176 -377v1366h62v-694q0 -147 66 -207.5t190 -60.5q98 0 196.5 54t153.5 130v778h61v-989h-61v152q-68 -76 -164.5 -126.5t-194.5 -50.5q-175 0 -247 93v-445h-62z" />
<glyph unicode="&#xb6;" horiz-adv-x="919" d="M55 1014q0 146 103.5 249t249.5 103h323v-1571h-61v1510h-201v-1510h-61v867q-146 0 -249.5 103t-103.5 249z" />
<glyph unicode="&#xb7;" d="M145 502q0 26 20 45.5t48 19.5t48 -19.5t20 -45.5q0 -28 -20 -48t-48 -20t-48 20t-20 48z" />
<glyph unicode="&#xb8;" horiz-adv-x="391" d="M0 -326l29 56q66 -58 161 -58q59 0 100.5 27.5t41.5 73.5q0 41 -22.5 64.5t-67.5 23.5q-57 0 -88 -39l-45 26l63 175h61l-53 -142q31 25 78 25q60 0 96.5 -36t36.5 -97q0 -68 -57.5 -112t-143.5 -44q-56 0 -107.5 16.5t-82.5 40.5z" />
<glyph unicode="&#xb9;" horiz-adv-x="393" d="M41 1499l174 182h55v-819h-61v737l-129 -141z" />
<glyph unicode="&#xba;" horiz-adv-x="829" d="M98 989q0 144 88.5 241t227.5 97q142 0 229.5 -96.5t87.5 -241.5q0 -144 -87.5 -241t-229.5 -97q-139 0 -227.5 97.5t-88.5 240.5zM160 989q0 -119 68.5 -201.5t185.5 -82.5q119 0 188.5 82.5t69.5 201.5t-69.5 201t-188.5 82q-117 0 -185.5 -82t-68.5 -201z" />
<glyph unicode="&#xbb;" horiz-adv-x="745" d="M61 129l328 369l-328 362h80l328 -362l-328 -369h-80zM276 129l328 369l-328 362h80l328 -362l-328 -369h-80z" />
<glyph unicode="&#xbc;" horiz-adv-x="1464" d="M41 1184l174 182h55v-819h-61v737l-129 -141zM170 0l872 1366h76l-874 -1366h-74zM782 231v54l381 534h80v-534h127v-54h-127v-231h-59v231h-402zM846 285h338v475z" />
<glyph unicode="&#xbd;" horiz-adv-x="1546" d="M41 1184l174 182h55v-819h-61v737l-129 -141zM170 0l872 1366h76l-874 -1366h-74zM879 0v49q117 85 196.5 149.5t151.5 136.5t107.5 137.5t35.5 127.5q0 90 -61 134t-144 44q-77 0 -138.5 -29.5t-94.5 -78.5l-41 37q41 58 114.5 91t161.5 33q47 0 91 -12.5t84 -38.5 t64 -72t24 -106q0 -56 -25.5 -114.5t-64.5 -109.5t-103.5 -110.5t-123.5 -106t-144 -108.5h465v-53h-555z" />
<glyph unicode="&#xbe;" horiz-adv-x="1722" d="M102 668l41 34q37 -53 99.5 -84.5t142.5 -31.5q102 0 161.5 48t59.5 132q0 90 -67 134t-172 44q-62 0 -74 -2v55q12 -2 74 -2q98 0 162.5 41t64.5 125q0 75 -61 119.5t-150 44.5q-74 0 -128.5 -25.5t-102.5 -80.5l-39 36q103 123 272 123q112 0 190 -58t78 -157 q0 -47 -18.5 -84t-48 -58.5t-58 -33.5t-57.5 -16q29 -2 61.5 -15.5t63.5 -37t51.5 -63.5t20.5 -89q0 -103 -76 -168.5t-207 -65.5q-98 0 -172.5 38.5t-110.5 97.5zM428 0l872 1366h76l-874 -1366h-74zM1040 231v54l381 534h80v-534h127v-54h-127v-231h-59v231h-402z M1104 285h338v475z" />
<glyph unicode="&#xbf;" horiz-adv-x="813" d="M63 242q0 73 40 131.5t96.5 97t113 72.5t96.5 76.5t40 91.5q0 51 -68 94l43 43q86 -61 86 -137q0 -53 -28.5 -98t-71 -75t-92 -63t-92 -62.5t-71 -74t-28.5 -96.5q0 -91 74 -149t198 -58q118 0 197.5 44t142.5 126l45 -39q-136 -189 -385 -189q-153 0 -244.5 77.5 t-91.5 187.5zM362 1077q0 28 20 48t48 20t48 -20t20 -48q0 -26 -20 -45.5t-48 -19.5t-48 19.5t-20 45.5z" />
<glyph unicode="&#xc0;" horiz-adv-x="1302" d="M43 0l569 1366h78l570 -1366h-76l-152 367h-762l-151 -367h-76zM295 428h713l-357 862zM340 1786h92l328 -295h-62z" />
<glyph unicode="&#xc1;" horiz-adv-x="1302" d="M43 0l569 1366h78l570 -1366h-76l-152 367h-762l-151 -367h-76zM295 428h713l-357 862zM545 1491l327 295h93l-359 -295h-61z" />
<glyph unicode="&#xc2;" horiz-adv-x="1302" d="M43 0l569 1366h78l570 -1366h-76l-152 367h-762l-151 -367h-76zM295 428h713l-357 862zM414 1491l200 295h74l207 -295h-57l-187 246l-180 -246h-57z" />
<glyph unicode="&#xc3;" horiz-adv-x="1302" d="M43 0l569 1366h78l570 -1366h-76l-152 367h-762l-151 -367h-76zM295 428h713l-357 862zM344 1499q0 116 48 195.5t132 79.5q44 0 76 -24t51.5 -58t36.5 -68t41.5 -58t56.5 -24q54 0 87.5 54.5t33.5 164.5h54q0 -116 -48.5 -195t-132.5 -79q-44 0 -76 24t-51.5 57.5 t-36.5 67.5t-41.5 58t-56.5 24q-54 0 -87.5 -54.5t-33.5 -164.5h-53z" />
<glyph unicode="&#xc4;" horiz-adv-x="1302" d="M43 0l569 1366h78l570 -1366h-76l-152 367h-762l-151 -367h-76zM295 428h713l-357 862zM389 1565q0 23 17 40t40 17t40.5 -17t17.5 -40t-17.5 -40.5t-40.5 -17.5t-40 17.5t-17 40.5zM803 1565q0 23 17 40t40 17t40.5 -17t17.5 -40t-17.5 -40.5t-40.5 -17.5t-40 17.5 t-17 40.5z" />
<glyph unicode="&#xc5;" horiz-adv-x="1302" d="M43 0l569 1366h78l570 -1366h-76l-152 367h-762l-151 -367h-76zM295 428h713l-357 862zM463 1608q0 78 56 134t134 56t133.5 -56t55.5 -134t-55.5 -134.5t-133.5 -56.5t-134 56.5t-56 134.5zM512 1608q0 -59 41.5 -100.5t99.5 -41.5t99 41.5t41 100.5t-41 100t-99 41 q-59 0 -100 -41.5t-41 -99.5z" />
<glyph unicode="&#xc6;" horiz-adv-x="1904" d="M43 0l870 1366h859v-61h-771v-572h756v-61h-756v-611h771v-61h-836v367h-586l-231 -367h-76zM385 428h551v862z" />
<glyph unicode="&#xc7;" horiz-adv-x="1366" d="M133 682q0 154 53.5 287t145 224.5t217 143.5t266.5 52q288 0 475 -215l-51 -46q-73 92 -185.5 145.5t-238.5 53.5q-127 0 -239.5 -47t-194 -130.5t-129 -204.5t-47.5 -263q0 -140 47.5 -261t129 -205t194 -131.5t239.5 -47.5q126 0 238.5 53.5t185.5 145.5l53 -43 q-191 -215 -467 -218l-32 -86q31 25 77 25q60 0 97 -36t37 -97q0 -68 -57.5 -112t-143.5 -44q-56 0 -108 16.5t-83 41.5l29 55q65 -57 162 -57q59 0 100 27t41 73q0 41 -22.5 64.5t-67.5 23.5q-57 0 -88 -39l-45 27l43 120q-132 9 -248 64.5t-200.5 146.5t-133.5 219 t-49 275z" />
<glyph unicode="&#xc8;" horiz-adv-x="1142" d="M180 0v1366h836v-61h-770v-572h755v-61h-755v-611h770v-61h-836zM285 1786h92l328 -295h-62z" />
<glyph unicode="&#xc9;" horiz-adv-x="1142" d="M180 0v1366h836v-61h-770v-572h755v-61h-755v-611h770v-61h-836zM489 1491l328 295h92l-358 -295h-62z" />
<glyph unicode="&#xca;" horiz-adv-x="1142" d="M180 0v1366h836v-61h-770v-572h755v-61h-755v-611h770v-61h-836zM354 1491l201 295h74l207 -295h-58l-186 246l-180 -246h-58z" />
<glyph unicode="&#xcb;" horiz-adv-x="1142" d="M180 0v1366h836v-61h-770v-572h755v-61h-755v-611h770v-61h-836zM330 1565q0 23 17 40t40 17t40 -17t17 -40t-17 -40.5t-40 -17.5t-40 17.5t-17 40.5zM743 1565q0 23 17.5 40t40.5 17t40 -17t17 -40t-17 -40.5t-40 -17.5t-40.5 17.5t-17.5 40.5z" />
<glyph unicode="&#xcc;" d="M-98 1786h92l328 -295h-62zM180 0v1366h66v-1366h-66z" />
<glyph unicode="&#xcd;" d="M106 1491l328 295h92l-358 -295h-62zM180 0v1366h66v-1366h-66z" />
<glyph unicode="&#xce;" d="M-25 1491l201 295h74l207 -295h-58l-186 246l-180 -246h-58zM180 0v1366h66v-1366h-66z" />
<glyph unicode="&#xcf;" d="M-51 1565q0 23 17 40t40 17t40 -17t17 -40t-17 -40.5t-40 -17.5t-40 17.5t-17 40.5zM180 0v1366h66v-1366h-66zM362 1565q0 23 17.5 40t40.5 17t40 -17t17 -40t-17 -40.5t-40 -17.5t-40.5 17.5t-17.5 40.5z" />
<glyph unicode="&#xd0;" horiz-adv-x="1464" d="M25 653v62h219v651h405q155 0 284.5 -55.5t215 -149.5t133 -218t47.5 -261q0 -139 -47.5 -262.5t-133 -217t-215 -148t-284.5 -54.5h-405v653h-219zM309 61h340q142 0 258 48.5t192 132.5t117 197t41 243q0 103 -25.5 196t-77 171t-124 135t-170 89t-211.5 32h-340v-590 h385v-62h-385v-592z" />
<glyph unicode="&#xd1;" horiz-adv-x="1413" d="M180 0v1366h66l921 -1247v1247h66v-1366h-66l-921 1260v-1260h-66zM395 1499q0 116 48 195.5t132 79.5q44 0 76.5 -24t51.5 -58t36.5 -68t42 -58t56.5 -24q54 0 87 54.5t33 164.5h54q0 -116 -48.5 -195t-132.5 -79q-44 0 -76 24t-51.5 57.5t-36.5 67.5t-41.5 58t-56.5 24 q-54 0 -87 -54.5t-33 -164.5h-54z" />
<glyph unicode="&#xd2;" horiz-adv-x="1564" d="M133 682q0 198 78.5 358t227.5 254.5t343 94.5q193 0 342.5 -94.5t228.5 -255t79 -357.5t-79 -357.5t-228.5 -255t-342.5 -94.5q-194 0 -343 94.5t-227.5 254.5t-78.5 358zM205 682q0 -185 69.5 -331t201.5 -230t306 -84q172 0 304 84t203 230t71 331q0 187 -71 333 t-203 229t-304 83q-174 0 -306 -83t-201.5 -229t-69.5 -333zM479 1786h92l328 -295h-61z" />
<glyph unicode="&#xd3;" horiz-adv-x="1564" d="M133 682q0 198 78.5 358t227.5 254.5t343 94.5q193 0 342.5 -94.5t228.5 -255t79 -357.5t-79 -357.5t-228.5 -255t-342.5 -94.5q-194 0 -343 94.5t-227.5 254.5t-78.5 358zM205 682q0 -185 69.5 -331t201.5 -230t306 -84q172 0 304 84t203 230t71 331q0 187 -71 333 t-203 229t-304 83q-174 0 -306 -83t-201.5 -229t-69.5 -333zM678 1491l328 295h92l-359 -295h-61z" />
<glyph unicode="&#xd4;" horiz-adv-x="1564" d="M133 682q0 198 78.5 358t227.5 254.5t343 94.5q193 0 342.5 -94.5t228.5 -255t79 -357.5t-79 -357.5t-228.5 -255t-342.5 -94.5q-194 0 -343 94.5t-227.5 254.5t-78.5 358zM205 682q0 -185 69.5 -331t201.5 -230t306 -84q172 0 304 84t203 230t71 331q0 187 -71 333 t-203 229t-304 83q-174 0 -306 -83t-201.5 -229t-69.5 -333zM545 1491l200 295h74l207 -295h-57l-187 246l-180 -246h-57z" />
<glyph unicode="&#xd5;" horiz-adv-x="1564" d="M133 682q0 198 78.5 358t227.5 254.5t343 94.5q193 0 342.5 -94.5t228.5 -255t79 -357.5t-79 -357.5t-228.5 -255t-342.5 -94.5q-194 0 -343 94.5t-227.5 254.5t-78.5 358zM205 682q0 -185 69.5 -331t201.5 -230t306 -84q172 0 304 84t203 230t71 331q0 187 -71 333 t-203 229t-304 83q-174 0 -306 -83t-201.5 -229t-69.5 -333zM475 1499q0 116 48 195.5t132 79.5q44 0 76.5 -24t51.5 -58t36.5 -68t42 -58t56.5 -24q54 0 87 54.5t33 164.5h54q0 -116 -48.5 -195t-132.5 -79q-44 0 -76 24t-51.5 57.5t-36.5 67.5t-41.5 58t-56.5 24 q-54 0 -87.5 -54.5t-33.5 -164.5h-53z" />
<glyph unicode="&#xd6;" horiz-adv-x="1564" d="M133 682q0 198 78.5 358t227.5 254.5t343 94.5q193 0 342.5 -94.5t228.5 -255t79 -357.5t-79 -357.5t-228.5 -255t-342.5 -94.5q-194 0 -343 94.5t-227.5 254.5t-78.5 358zM205 682q0 -185 69.5 -331t201.5 -230t306 -84q172 0 304 84t203 230t71 331q0 187 -71 333 t-203 229t-304 83q-174 0 -306 -83t-201.5 -229t-69.5 -333zM514 1565q0 23 17 40t40 17t40.5 -17t17.5 -40t-17.5 -40.5t-40.5 -17.5t-40 17.5t-17 40.5zM928 1565q0 23 17 40t40 17t40 -17t17 -40t-17 -40.5t-40 -17.5t-40 17.5t-17 40.5z" />
<glyph unicode="&#xd7;" horiz-adv-x="1011" d="M145 367l318 317l-318 317l43 43l318 -317l317 317l43 -43l-317 -317l317 -317l-43 -43l-317 317l-318 -317z" />
<glyph unicode="&#xd8;" horiz-adv-x="1564" d="M133 682q0 198 78.5 358t227.5 254.5t343 94.5q180 0 332 -89l39 66h74l-62 -102q126 -94 196.5 -247t70.5 -335q0 -197 -79 -357.5t-228.5 -255t-342.5 -94.5q-188 0 -333 88l-37 -63h-74l59 98q-126 95 -195 247.5t-69 336.5zM205 682q0 -168 58.5 -304.5t166.5 -223.5 l651 1093q-132 80 -299 80q-174 0 -306 -83t-201.5 -229t-69.5 -333zM481 117q132 -80 301 -80q172 0 304 84t203 230t71 331q0 167 -59.5 304t-167.5 224z" />
<glyph unicode="&#xd9;" horiz-adv-x="1376" d="M180 518v848h66v-848q0 -229 114 -355t328 -126t328 126t114 355v848h66v-848q0 -257 -131 -400t-377 -143t-377 143.5t-131 399.5zM379 1786h92l328 -295h-62z" />
<glyph unicode="&#xda;" horiz-adv-x="1376" d="M180 518v848h66v-848q0 -229 114 -355t328 -126t328 126t114 355v848h66v-848q0 -257 -131 -400t-377 -143t-377 143.5t-131 399.5zM578 1491l327 295h92l-358 -295h-61z" />
<glyph unicode="&#xdb;" horiz-adv-x="1376" d="M180 518v848h66v-848q0 -229 114 -355t328 -126t328 126t114 355v848h66v-848q0 -257 -131 -400t-377 -143t-377 143.5t-131 399.5zM455 1491l200 295h74l207 -295h-57l-187 246l-180 -246h-57z" />
<glyph unicode="&#xdc;" horiz-adv-x="1376" d="M180 518v848h66v-848q0 -229 114 -355t328 -126t328 126t114 355v848h66v-848q0 -257 -131 -400t-377 -143t-377 143.5t-131 399.5zM424 1565q0 23 17 40t40 17t40.5 -17t17.5 -40t-17.5 -40.5t-40.5 -17.5t-40 17.5t-17 40.5zM838 1565q0 23 17 40t40 17t40 -17t17 -40 t-17 -40.5t-40 -17.5t-40 17.5t-17 40.5z" />
<glyph unicode="&#xdd;" horiz-adv-x="1249" d="M43 1366h84l498 -709l497 709h84l-549 -774v-592h-65v592zM526 1491l328 295h92l-358 -295h-62z" />
<glyph unicode="&#xde;" horiz-adv-x="1136" d="M180 0v1366h66v-264h407q123 0 215.5 -54t138.5 -141.5t46 -193.5q0 -162 -109 -273.5t-291 -111.5h-407v-328h-66zM246 389h405q149 0 239.5 90.5t90.5 233.5t-90.5 235t-239.5 92h-405v-651z" />
<glyph unicode="&#xdf;" horiz-adv-x="2023" d="M92 158l53 43q61 -71 154.5 -118.5t208.5 -47.5q173 0 255.5 74t82.5 182q0 66 -31 114.5t-81.5 75t-115 48.5t-132 36t-132 37.5t-115 51.5t-81.5 80t-31 122q0 133 108.5 214t262.5 81q245 0 387 -162l-47 -43q-118 146 -340 146q-127 0 -214 -67.5t-87 -168.5 q0 -50 24.5 -87.5t66 -61.5t95.5 -42.5t113.5 -34t119 -32.5t113.5 -42t95.5 -58.5t66 -86t24.5 -120.5q0 -64 -23.5 -119.5t-70.5 -100.5t-127.5 -70.5t-185.5 -25.5q-133 0 -240.5 50t-175.5 133zM1104 158l53 43q61 -71 154.5 -118.5t208.5 -47.5q173 0 255.5 74 t82.5 182q0 66 -31 114.5t-81.5 75t-115 48.5t-132 36t-132 37.5t-115 51.5t-81.5 80t-31 122q0 133 108 214t262 81q245 0 387 -162l-47 -43q-118 146 -340 146q-127 0 -214 -67.5t-87 -168.5q0 -50 24.5 -87.5t66 -61.5t95.5 -42.5t114 -34t119.5 -32.5t113.5 -42 t95.5 -58.5t66 -86t24.5 -120.5q0 -64 -23.5 -119.5t-70.5 -100.5t-127.5 -70.5t-185.5 -25.5q-133 0 -240.5 50t-175.5 133z" />
<glyph unicode="&#xe0;" horiz-adv-x="1128" d="M35 0l493 1126h72l494 -1126h-74l-131 299h-649l-129 -299h-76zM254 1536h92l328 -295h-62zM264 358h600l-299 691z" />
<glyph unicode="&#xe1;" horiz-adv-x="1128" d="M35 0l493 1126h72l494 -1126h-74l-131 299h-649l-129 -299h-76zM264 358h600l-299 691zM461 1241l327 295h93l-359 -295h-61z" />
<glyph unicode="&#xe2;" horiz-adv-x="1128" d="M35 0l493 1126h72l494 -1126h-74l-131 299h-649l-129 -299h-76zM264 358h600l-299 691zM328 1241l200 295h74l207 -295h-57l-187 246l-180 -246h-57z" />
<glyph unicode="&#xe3;" horiz-adv-x="1128" d="M35 0l493 1126h72l494 -1126h-74l-131 299h-649l-129 -299h-76zM258 1249q0 116 48 195.5t132 79.5q44 0 76 -24t51.5 -58t36.5 -68t41.5 -58t56.5 -24q54 0 87.5 54.5t33.5 164.5h53q0 -116 -48 -195t-132 -79q-44 0 -76 24t-51.5 57.5t-36.5 67.5t-41.5 58t-56.5 24 q-54 0 -87.5 -54.5t-33.5 -164.5h-53zM264 358h600l-299 691z" />
<glyph unicode="&#xe4;" horiz-adv-x="1128" d="M35 0l493 1126h72l494 -1126h-74l-131 299h-649l-129 -299h-76zM264 358h600l-299 691zM301 1327q0 23 17 40t40 17t40.5 -17t17.5 -40t-17.5 -40t-40.5 -17t-40 17t-17 40zM715 1327q0 23 17 40t40 17t40 -17t17 -40t-17 -40t-40 -17t-40 17t-17 40z" />
<glyph unicode="&#xe5;" horiz-adv-x="1128" d="M35 0l493 1126h72l494 -1126h-74l-131 299h-649l-129 -299h-76zM264 358h600l-299 691zM377 1440q0 78 56 134t134 56t133.5 -56t55.5 -134t-55.5 -134.5t-133.5 -56.5t-134 56.5t-56 134.5zM426 1440q0 -59 41.5 -100.5t99.5 -41.5t99 41.5t41 100.5t-41 100t-99 41 q-59 0 -100 -41.5t-41 -99.5z" />
<glyph unicode="&#xe6;" horiz-adv-x="1640" d="M35 0l735 1126h748v-59h-662v-457h649v-59h-649v-492h662v-59h-727v299h-488l-192 -299h-76zM340 358h451v691z" />
<glyph unicode="&#xe7;" horiz-adv-x="1187" d="M123 565q0 169 78.5 304t213 208.5t298.5 73.5q249 0 415 -184l-47 -41q-62 79 -160 122.5t-208 43.5q-221 0 -370.5 -148.5t-149.5 -378.5q0 -152 69 -273.5t188 -189t263 -67.5q109 0 209.5 45t158.5 121l49 -41q-160 -176 -391 -185l-34 -94q31 25 77 25 q60 0 96.5 -36t36.5 -97q0 -68 -57 -112t-143 -44q-56 0 -108 16.5t-83 40.5l29 56q66 -58 162 -58q59 0 100 27.5t41 73.5q0 41 -22.5 64.5t-67.5 23.5q-57 0 -88 -39l-45 26l45 129q-238 12 -396.5 176t-158.5 412z" />
<glyph unicode="&#xe8;" horiz-adv-x="1024" d="M176 0v1126h725v-59h-659v-457h649v-59h-649v-492h659v-59h-725zM236 1536h92l327 -295h-61z" />
<glyph unicode="&#xe9;" horiz-adv-x="1024" d="M176 0v1126h725v-59h-659v-457h649v-59h-649v-492h659v-59h-725zM440 1241l328 295h92l-358 -295h-62z" />
<glyph unicode="&#xea;" horiz-adv-x="1024" d="M176 0v1126h725v-59h-659v-457h649v-59h-649v-492h659v-59h-725zM307 1241l201 295h74l206 -295h-57l-186 246l-180 -246h-58z" />
<glyph unicode="&#xeb;" horiz-adv-x="1024" d="M176 0v1126h725v-59h-659v-457h649v-59h-649v-492h659v-59h-725zM272 1327q0 23 17.5 40t40.5 17t40 -17t17 -40t-17 -40t-40 -17t-40.5 17t-17.5 40zM686 1327q0 23 17 40t40 17t40.5 -17t17.5 -40t-17.5 -40t-40.5 -17t-40 17t-17 40z" />
<glyph unicode="&#xec;" horiz-adv-x="417" d="M-102 1536h92l327 -295h-61zM176 0v1126h66v-1126h-66z" />
<glyph unicode="&#xed;" horiz-adv-x="417" d="M104 1241l328 295h92l-358 -295h-62zM176 0v1126h66v-1126h-66z" />
<glyph unicode="&#xee;" horiz-adv-x="417" d="M-29 1241l201 295h74l207 -295h-58l-186 246l-180 -246h-58zM176 0v1126h66v-1126h-66z" />
<glyph unicode="&#xef;" horiz-adv-x="417" d="M-53 1327q0 23 17 40t40 17t40 -17t17 -40t-17 -40t-40 -17t-40 17t-17 40zM176 0v1126h66v-1126h-66zM360 1327q0 23 17.5 40t40.5 17t40 -17t17 -40t-17 -40t-40 -17t-40.5 17t-17.5 40z" />
<glyph unicode="&#xf0;" horiz-adv-x="1265" d="M25 549v55h145v522h352q134 0 246.5 -46t187 -123.5t115.5 -180t41 -215.5q0 -114 -41 -215.5t-115.5 -178.5t-187 -122t-246.5 -45h-352v549h-145zM236 59h286q161 0 280 67.5t178.5 180t59.5 254.5q0 141 -59.5 254.5t-179 182.5t-279.5 69h-286v-463h309v-55h-309 v-490z" />
<glyph unicode="&#xf1;" horiz-adv-x="1265" d="M176 0v1126h62l786 -1013v1013h66v-1126h-62l-786 1024v-1024h-66zM322 1249q0 116 48 195.5t132 79.5q44 0 76 -24t51.5 -58t36.5 -68t41.5 -58t56.5 -24q54 0 87.5 54.5t33.5 164.5h53q0 -116 -48 -195t-132 -79q-44 0 -76 24t-51.5 57.5t-36.5 67.5t-41.5 58t-56.5 24 q-54 0 -87.5 -54.5t-33.5 -164.5h-53z" />
<glyph unicode="&#xf2;" horiz-adv-x="1370" d="M123 563q0 122 40 229.5t111.5 187t178 125.5t233.5 46q167 0 296 -79t197 -212.5t68 -296.5t-68 -296.5t-197 -212.5t-296 -79q-127 0 -233.5 46t-178 125.5t-111.5 187t-40 229.5zM193 563q0 -230 135 -379t358 -149q220 0 356 149.5t136 378.5q0 231 -136 380 t-356 149q-224 0 -358.5 -148.5t-134.5 -380.5zM373 1536h92l328 -295h-62z" />
<glyph unicode="&#xf3;" horiz-adv-x="1370" d="M123 563q0 122 40 229.5t111.5 187t178 125.5t233.5 46q167 0 296 -79t197 -212.5t68 -296.5t-68 -296.5t-197 -212.5t-296 -79q-127 0 -233.5 46t-178 125.5t-111.5 187t-40 229.5zM193 563q0 -230 135 -379t358 -149q220 0 356 149.5t136 378.5q0 231 -136 380 t-356 149q-224 0 -358.5 -148.5t-134.5 -380.5zM582 1241l327 295h92l-358 -295h-61z" />
<glyph unicode="&#xf4;" horiz-adv-x="1370" d="M123 563q0 122 40 229.5t111.5 187t178 125.5t233.5 46q167 0 296 -79t197 -212.5t68 -296.5t-68 -296.5t-197 -212.5t-296 -79q-127 0 -233.5 46t-178 125.5t-111.5 187t-40 229.5zM193 563q0 -230 135 -379t358 -149q220 0 356 149.5t136 378.5q0 231 -136 380 t-356 149q-224 0 -358.5 -148.5t-134.5 -380.5zM449 1241l200 295h74l207 -295h-58l-186 246l-180 -246h-57z" />
<glyph unicode="&#xf5;" horiz-adv-x="1370" d="M123 563q0 122 40 229.5t111.5 187t178 125.5t233.5 46q167 0 296 -79t197 -212.5t68 -296.5t-68 -296.5t-197 -212.5t-296 -79q-127 0 -233.5 46t-178 125.5t-111.5 187t-40 229.5zM193 563q0 -230 135 -379t358 -149q220 0 356 149.5t136 378.5q0 231 -136 380 t-356 149q-224 0 -358.5 -148.5t-134.5 -380.5zM383 1249q0 116 48 195.5t132 79.5q44 0 76 -24t51.5 -58t36.5 -68t41.5 -58t56.5 -24q54 0 87.5 54.5t33.5 164.5h53q0 -116 -48 -195t-132 -79q-44 0 -76 24t-51.5 57.5t-36.5 67.5t-41.5 58t-56.5 24q-54 0 -87.5 -54.5 t-33.5 -164.5h-53z" />
<glyph unicode="&#xf6;" horiz-adv-x="1370" d="M123 563q0 122 40 229.5t111.5 187t178 125.5t233.5 46q167 0 296 -79t197 -212.5t68 -296.5t-68 -296.5t-197 -212.5t-296 -79q-127 0 -233.5 46t-178 125.5t-111.5 187t-40 229.5zM193 563q0 -230 135 -379t358 -149q220 0 356 149.5t136 378.5q0 231 -136 380 t-356 149q-224 0 -358.5 -148.5t-134.5 -380.5zM424 1327q0 23 17 40t40 17t40.5 -17t17.5 -40t-17.5 -40t-40.5 -17t-40 17t-17 40zM838 1327q0 23 17 40t40 17t40 -17t17 -40t-17 -40t-40 -17t-40 17t-17 40z" />
<glyph unicode="&#xf7;" horiz-adv-x="1046" d="M59 659v62h928v-62h-928zM457 272q0 28 19.5 48t47.5 20t48 -20t20 -48t-20 -47.5t-48 -19.5t-47.5 19.5t-19.5 47.5zM457 1098q0 28 19.5 46.5t47.5 18.5t48 -19t20 -46q0 -28 -20 -49t-48 -21q-27 0 -47 21t-20 49z" />
<glyph unicode="&#xf8;" horiz-adv-x="1370" d="M123 563q0 122 40 229.5t111.5 187t178 125.5t233.5 46q174 0 305 -86l43 61h74l-68 -96q99 -82 153 -203.5t54 -263.5q0 -163 -68 -296.5t-197 -212.5t-296 -79q-178 0 -315 91l-45 -66h-74l70 100q-95 82 -147 202t-52 261zM193 563q0 -127 42.5 -232.5t122.5 -176.5 l598 862q-115 76 -270 76q-224 0 -358.5 -148.5t-134.5 -380.5zM406 117q118 -82 280 -82q220 0 356 149.5t136 378.5q0 130 -45 237.5t-127 178.5z" />
<glyph unicode="&#xf9;" horiz-adv-x="1234" d="M176 424v702h66v-702q0 -185 96.5 -287t277.5 -102q182 0 279.5 102.5t97.5 286.5v702h66v-702q0 -212 -114.5 -330.5t-328.5 -118.5q-213 0 -326.5 119t-113.5 330zM305 1536h92l328 -295h-61z" />
<glyph unicode="&#xfa;" horiz-adv-x="1234" d="M176 424v702h66v-702q0 -185 96.5 -287t277.5 -102q182 0 279.5 102.5t97.5 286.5v702h66v-702q0 -212 -114.5 -330.5t-328.5 -118.5q-213 0 -326.5 119t-113.5 330zM516 1241l328 295h92l-358 -295h-62z" />
<glyph unicode="&#xfb;" horiz-adv-x="1234" d="M176 424v702h66v-702q0 -185 96.5 -287t277.5 -102q182 0 279.5 102.5t97.5 286.5v702h66v-702q0 -212 -114.5 -330.5t-328.5 -118.5q-213 0 -326.5 119t-113.5 330zM377 1241l201 295h73l207 -295h-57l-187 246l-180 -246h-57z" />
<glyph unicode="&#xfc;" horiz-adv-x="1234" d="M176 424v702h66v-702q0 -185 96.5 -287t277.5 -102q182 0 279.5 102.5t97.5 286.5v702h66v-702q0 -212 -114.5 -330.5t-328.5 -118.5q-213 0 -326.5 119t-113.5 330zM352 1327q0 23 17.5 40t40.5 17t40 -17t17 -40t-17 -40t-40 -17t-40.5 17t-17.5 40zM766 1327 q0 23 17 40t40 17t40.5 -17t17.5 -40t-17.5 -40t-40.5 -17t-40 17t-17 40z" />
<glyph unicode="&#xfd;" horiz-adv-x="1087" d="M35 1126h84l430 -577l422 577h82l-471 -639v-487h-66v487zM442 1241l328 295h92l-358 -295h-62z" />
<glyph unicode="&#xfe;" horiz-adv-x="1015" d="M176 0v1126h66v-208h344q168 0 258 -92t90 -230q0 -139 -90.5 -231.5t-257.5 -92.5h-344v-272h-66zM242 332h344q136 0 207 72.5t71 191.5q0 118 -71 190t-207 72h-344v-526z" />
<glyph unicode="&#xff;" horiz-adv-x="1087" d="M35 1126h84l430 -577l422 577h82l-471 -639v-487h-66v487zM285 1327q0 23 17 40t40 17t40 -17t17 -40t-17 -40t-40 -17t-40 17t-17 40zM698 1327q0 23 17.5 40t40.5 17t40 -17t17 -40t-17 -40t-40 -17t-40.5 17t-17.5 40z" />
<glyph unicode="&#x152;" horiz-adv-x="2301" d="M133 682q0 147 46 276.5t129 224t205.5 149t268.5 54.5q175 0 323 -88.5t228 -253.5v322h836v-61h-770v-572h755v-61h-755v-611h770v-61h-836v322q-80 -166 -228 -256.5t-323 -90.5q-194 0 -343 94.5t-227.5 254.5t-78.5 358zM205 682q0 -186 69.5 -332t201.5 -229.5 t306 -83.5q191 0 336.5 104t214.5 305v474q-69 200 -214 302.5t-337 102.5q-262 0 -419.5 -179t-157.5 -464z" />
<glyph unicode="&#x153;" horiz-adv-x="1994" d="M123 563q0 122 40 229.5t111.5 187t178 125.5t233.5 46q154 0 272.5 -71.5t186.5 -209.5v256h727v-59h-662v-457h650v-59h-650v-492h662v-59h-727v258q-68 -139 -186.5 -211t-272.5 -72q-127 0 -233.5 46t-178 125.5t-111.5 187t-40 229.5zM193 563q0 -230 135 -379 t358 -149q104 0 192 35t159.5 115.5t107.5 201.5v356q-35 120 -109.5 200.5t-162 114.5t-187.5 34q-224 0 -358.5 -148.5t-134.5 -380.5z" />
<glyph unicode="&#x178;" horiz-adv-x="1249" d="M43 1366h84l498 -709l497 709h84l-549 -774v-592h-65v592zM369 1565q0 23 17 40t40 17t40 -17t17 -40t-17 -40.5t-40 -17.5t-40 17.5t-17 40.5zM782 1565q0 23 17.5 40t40.5 17t40 -17t17 -40t-17 -40.5t-40 -17.5t-40.5 17.5t-17.5 40.5z" />
<glyph unicode="&#x2c6;" horiz-adv-x="481" d="M0 1139l201 295h73l207 -295h-57l-186 245l-181 -245h-57z" />
<glyph unicode="&#x2dc;" horiz-adv-x="616" d="M0 1147q0 116 48 195t132 79q44 0 76 -24t51.5 -57.5t36.5 -67.5t41.5 -58t56.5 -24q54 0 87.5 54.5t33.5 164.5h53q0 -116 -48 -195t-132 -79q-44 0 -76 24t-51.5 57.5t-36.5 67.5t-41.5 58t-56.5 24q-54 0 -87.5 -54.5t-33.5 -164.5h-53z" />
<glyph unicode="&#x2000;" horiz-adv-x="899" />
<glyph unicode="&#x2001;" horiz-adv-x="1798" />
<glyph unicode="&#x2002;" horiz-adv-x="899" />
<glyph unicode="&#x2003;" horiz-adv-x="1798" />
<glyph unicode="&#x2004;" horiz-adv-x="599" />
<glyph unicode="&#x2005;" horiz-adv-x="449" />
<glyph unicode="&#x2006;" horiz-adv-x="299" />
<glyph unicode="&#x2007;" horiz-adv-x="299" />
<glyph unicode="&#x2008;" horiz-adv-x="224" />
<glyph unicode="&#x2009;" horiz-adv-x="359" />
<glyph unicode="&#x200a;" horiz-adv-x="99" />
<glyph unicode="&#x2010;" horiz-adv-x="614" d="M61 465v61h492v-61h-492z" />
<glyph unicode="&#x2011;" horiz-adv-x="614" d="M61 465v61h492v-61h-492z" />
<glyph unicode="&#x2012;" horiz-adv-x="614" d="M61 465v61h492v-61h-492z" />
<glyph unicode="&#x2013;" horiz-adv-x="1214" d="M61 465v61h1092v-61h-1092z" />
<glyph unicode="&#x2014;" horiz-adv-x="1705" d="M61 465v61h1584v-61h-1584z" />
<glyph unicode="&#x2018;" d="M113 1139q0 73 37 141.5t90 105.5l45 -36q-49 -36 -79 -89t-30 -100q13 2 17 2q29 0 47 -19.5t18 -47.5q0 -27 -18.5 -46.5t-46.5 -19.5q-34 0 -57 29t-23 80z" />
<glyph unicode="&#x2019;" d="M119 1067q49 36 78.5 88.5t29.5 99.5q-12 -2 -16 -2q-29 0 -47.5 20t-18.5 48q0 27 18.5 46t47.5 19q34 0 57 -29t23 -79q0 -73 -37.5 -142t-89.5 -106z" />
<glyph unicode="&#x201a;" d="M119 -205q49 36 78.5 89t29.5 100q-12 -2 -16 -2q-29 0 -47.5 19.5t-18.5 47.5q0 27 18.5 46.5t47.5 19.5q34 0 57 -29t23 -80q0 -73 -37.5 -142t-89.5 -106z" />
<glyph unicode="&#x201c;" horiz-adv-x="677" d="M135 1139q0 73 37 141.5t90 105.5l45 -36q-49 -36 -78.5 -89t-29.5 -100q12 2 16 2q29 0 47.5 -19.5t18.5 -47.5q0 -27 -18.5 -46.5t-47.5 -19.5q-34 0 -57 29t-23 80zM387 1139q0 73 37 141.5t90 105.5l45 -36q-49 -36 -78.5 -89t-29.5 -100q12 2 16 2q29 0 47 -19.5 t18 -47.5q0 -27 -18.5 -46.5t-46.5 -19.5q-34 0 -57 29t-23 80z" />
<glyph unicode="&#x201d;" horiz-adv-x="677" d="M119 1067q49 36 78.5 88.5t29.5 99.5q-12 -2 -16 -2q-29 0 -47.5 20t-18.5 48q0 27 18.5 46t47.5 19q34 0 57 -29t23 -79q0 -73 -37.5 -142t-89.5 -106zM371 1067q49 36 78.5 88.5t29.5 99.5q-12 -2 -16 -2q-29 0 -47.5 20t-18.5 48q0 27 18.5 46t47.5 19q34 0 57 -29 t23 -79q0 -73 -37.5 -142t-89.5 -106z" />
<glyph unicode="&#x201e;" horiz-adv-x="677" d="M119 -205q49 36 78.5 89t29.5 100q-12 -2 -16 -2q-29 0 -47.5 19.5t-18.5 47.5q0 27 18.5 46.5t47.5 19.5q34 0 57 -29t23 -80q0 -73 -37.5 -142t-89.5 -106zM371 -205q49 36 78.5 89t29.5 100q-12 -2 -16 -2q-29 0 -47.5 19.5t-18.5 47.5q0 27 18.5 46.5t47.5 19.5 q34 0 57 -29t23 -80q0 -73 -37.5 -142t-89.5 -106z" />
<glyph unicode="&#x2022;" horiz-adv-x="733" d="M168 496q0 83 59 141.5t142 58.5t141.5 -58.5t58.5 -141.5q0 -82 -58.5 -140.5t-141.5 -58.5t-142 58.5t-59 140.5z" />
<glyph unicode="&#x2026;" horiz-adv-x="1277" d="M145 49q0 26 20 46t48 20t48 -20t20 -46q0 -28 -20 -47.5t-48 -19.5t-48 19.5t-20 47.5zM571 49q0 26 20 46t48 20t48 -20t20 -46q0 -28 -20 -47.5t-48 -19.5t-48 19.5t-20 47.5zM997 49q0 26 20 46t48 20t48 -20t20 -46q0 -28 -20 -47.5t-48 -19.5t-48 19.5t-20 47.5z " />
<glyph unicode="&#x202f;" horiz-adv-x="359" />
<glyph unicode="&#x2039;" horiz-adv-x="530" d="M61 498l328 362h80l-328 -362l328 -369h-80z" />
<glyph unicode="&#x203a;" horiz-adv-x="530" d="M61 129l328 369l-328 362h80l328 -362l-328 -369h-80z" />
<glyph unicode="&#x205f;" horiz-adv-x="449" />
<glyph unicode="&#x20ac;" horiz-adv-x="1249" d="M80 399v62h113q-9 49 -9 104q0 49 6 99h-110v61h125q49 193 205.5 309.5t363.5 116.5q250 0 416 -184l-47 -41q-62 79 -160.5 122.5t-208.5 43.5q-178 0 -314.5 -100.5t-183.5 -266.5h584v-61h-598q-8 -44 -8 -99q0 -60 8 -104h598v-62h-581q50 -165 184.5 -264.5 t310.5 -99.5q109 0 210 45t159 121l49 -41q-170 -185 -418 -185q-206 0 -361.5 115.5t-207.5 308.5h-125z" />
<glyph unicode="&#x2122;" horiz-adv-x="929" d="M35 1313v53h311v-53h-127v-398h-57v398h-127zM420 915v451h88l131 -328l131 328h88v-451h-57v373l-154 -373h-16l-154 373v-373h-57z" />
<glyph unicode="&#x25fc;" horiz-adv-x="1126" d="M0 0v1126h1126v-1126h-1126z" />
</font>
</defs>
</svg>
